0 size=102662938kB time=38:52:19. Download ffmpeg-4-libswresample-devel-4. Detailed Description Demuxers read a media file and split it into chunks of data (packets). buffer size can exceed the maximum upload speed or not? 14:02:16. __group__,ticket,summary,component,version,type,severity,owner,status,created,_changetime,_description,_reporter Build system,16775,3. How to Install FFMPEG on CentOS 7 June 28, 2016 Updated June 27, 2016 By Saheetha Shameer LINUX HOWTO FFMPEG is a major multimedia framework, able to decode, encode, transcode, mux, demux, stream, filter and play various audio and video files in different formats. Do not limit the input buffer size, read as much data as possible from the input as soon as possible. I've seen it reported this way in my searches. h:#define ALSA_BUFFER_SIZE_MAX 65536. c in FFmpeg before 2. See also fifo_size. ffmpeg multiplex pcm audio - Forum dedicated to FFmpeg; a free / open source multimedia software project that produces libraries and programs to record, convert and stream audio and video. If you're looking for an output that is roughly "visually lossless" but not technically lossless use a -crf value of around 17 or 18 (you'll have to. exe from C#. For video, it will select stream 0 from B. ) On the receiving machine you should be able to use vlc, ffmpeg or mplayer to catch the stream. One of them is type conversion from "AVPicture" to "AVFrame". Both of those should play. You would usually have this at 2x your target bitrate 14:02:16. 0 RTSPPort 5004 RTSPBindAddress 0. The Android Bitmap object has to have a specific pixel format: ARGB_8888. The simplest way is to use a predetermined video size: ffmpeg-i input. 1 がリリースされていました。gitkで修正を見るとsrt(libsrt. mkv -c:a copy -s hd720 output. qt filename extensions. I've seen a few questions about encoding h. The module supports H. Affected package: ffmpeg Affected versions: <= 3. If you're "trying to allocate an array 64 bytes in size", you may consider uint8_t Buffer[64]; instead of uint8_t *Buffer[64]; (the latter is an array of 64 pointers to byte) After doing this, you will have no need in malloc as your structure with a 64 bytes array inside is. avi -b 4000k -minrate 4000k -maxrate 4000k -bufsize 1835k out. So you can't use resources on those folders directly, you need to provide full paths of those resources. 10 allows CVE-2011-3934 Double free vulnerability in the vp3_update_thread_context function in. flutter_ffmpeg uses file system paths, it does not know what an assets folder or a project folder is. data[0][2] - planar formats use one buffer for each component of the image. So far I don't have success in encoding the nal packets into a mp4 container, and I thought that maybe the data is not written correctly into the buffer - and I didn't know whether this is the way to go, or whether I could use some FFMPEG class such as AVStream to accomplish the task. Over 30 frames per second with top quality makes around 30 millions pixel per second. So in order to actually get Variable Bitrate behaviour, FFMPEG would need to be configured to use VBR mode. UDP transport stream unexpected buffer overrun. WebcamLivestream. FFmpeg is a simple command line library which anyone can use for editing video/audio in a wide range of platforms including android. * * @return The number of bytes read into the buffer. h b/libavdevice/KVMFR. But if I change to 64KB it hits an exception at avformat_open_input(). c to test the following changes: Change the name of the main to ffmpeg_main and define your own main function which will read file from disk and put in the memory, and then pointer will be passed on to ffmpeg as input parameter. number of bits which should be loaded into the rc buffer before decoding starts-bufsize: ratecontrol buffer size (in bits)-pass: Pass to execute (1/2)-passlogfile: First pass statistics file name-vframes: Stop encoding after n input frames-minrate: Minimal bitrate allowed in vbr/2pass mode-maxrate: Maxium bitrate allowed in vbr/2pass mode-bt. parent_name = av_strdup((*parent)->item_name(parent)); 340: log_buffer[log_buffer_size]. h > #include < ffmpeg/avcodec. So in order to actually get Variable Bitrate behaviour, FFMPEG would need to be configured to use VBR mode. netstat -L shows 8090 listening when ffserver is being run, even before ffmpeg is being run, it is ffmpeg that checks the conf file for ACL and then says it doesn't like local host. In this post, I will demonstrate how images and audio can be piped to ffmpeg. data[0][2] - planar formats use one buffer for each component of the image. Popen, the bufsize parameter must be bigger than the size of one frame (see below). diff --git a/libavdevice/KVMFR. ) On the receiving machine you should be able to use vlc, ffmpeg or mplayer to catch the stream. I found a vulnerability of ffmpeg. Set the UDP maximum socket buffer size in bytes. Next we open the video file using av_open_input_file(). h), which is required by Qt's QImage::fromData() method. We would run ffmpeg. -bufsize size Set video buffer verifier buffer size (in bits). These are the only solutions I've found: Rebuilding ffmpeg/libav changing the UDP_MAX_PKT_SIZE in the udp. Using Raspberry Pi Camera with ffmpeg. h to hwconfig. increase the size of the real-time buffer. Since I put up this page I've had loads of e-mails asking how to do this, that and the other with ffmpeg. Might be useful to know that we can use ffmpeg. FFmpeg Status: Beta Brought to you by: michaelni , pulento. In most cases (such as storing a file for archival), letting the encoder choose the proper bitrate is the constant quality or CRF-based encoding. h > #include < ffmpeg/avcodec. > [ 2 - libavformat/rtmppkt. Once we have the frame, we simply copy it to our audio buffer, making sure the data_size is smaller than our audio buffer. Next we open the video file using av_open_input_file(). decklink_copyts. --Right now, here is what I'm doing: I record with: ffmpeg -y -framerate 30 -f x11grab -video_size 3840x2160 -i :0. m2v It is of little use elsewise. 000000, bitrate: 1591842 kb/s Stream #0:0: Video: r210 (r210 / 0x30313272), rgb48le(10 bpc), 1920x1080, 23. mp3 -acodec pcm_mulaw -b:a 64 -ac 1 -ar 8000 -f rtp rtp://224. I want to merge an audio and a video file into an mpeg file, and do: $ ffmpeg -i minpian. If you add "xamarin" to the search-term, you will most likely find the documentation of the class I used in the code. This option sets the size of this buffer, in packets, for the matching output. Few things to note: REM basically comments out the line so if you want to change encoder to hevc_nvenc (H. [vob @ 0x7fd08c058200] buffer underflow st=1 bufi=5673 size=11229 [vob @ 0x7fd08c058200] buffer underflow st=1 bufi=7697 size=11229 [vob @ 0x7fd08c058200] packet too large, ignoring buffer limits to mux it [vob @ 0x7fd08c058200] buffer underflow st=1 bufi. Lippel DE Member // Set up the tracks and retrieve the max buffer size for selected // tracks. You will have to experiment to see what looks best for your content. asoundrc # periods INT # when buffer_size or buffer_time is not specified #defaults. git/blob/n4. When I try to receive a RTP H264 stream using FFMPEG, the stream fails with the following errors: [sdp @ 0x1730dc0] video codec set to: h264 [udp @ 0x17315c0] end receive buffer size reported is 131072 [udp @ 0x17380c0] end receive buffer size reported is 131072 [sdp @ 0x1730dc0] Before avformat_find_stream_info() pos: 76 bytes read:76. localaddr=addr Choose the local IP address. h - - - - 2--2020-04-13: Mark Thompson: New. yuv -i 00000. buffer underflow i=1 bufi=1652 size=1792B time=00:01:17. Default is 64KB. If you exceed the packet buffer size (i. API documentation for the Rust `av_samples_get_buffer_size` fn in crate `ffmpeg_sys`. FFmpeg devices Description. Minimum is 4096 and max is any large value (representable by an int). ffmpeg -i video. Now we just have to read the output of FFMPEG. 1 がリリースされていました。gitkで修正を見るとsrt(libsrt. I can render the movie just fine into a. [mpeg @ 0x1751050]buffer underflow i=1 bufi=4064 size=4096 Last message repeated 67 times [mpeg @ 0x1751050]packet too large, ignoring buffer limits to. ffmpeg is a very fast video and audio converter that can also grab from a live audio/video source. Some formats do not have a header or do not store enough information there, so it is recommended that you call the avformat_find_stream_info() function which tries to read and decode a few frames to find missing information. A value of 0 specify not to draw the pointer. That script will automatically process every file in your Input folder and it will make Output folder for the new files. Examples · Use ffmpeg to convert an audio file to ABR 128 kbps AAC in an M4A (MP4) container: ffmpeg -i input. ffmpeg reads from an arbitrary number of input "files" (which can be regular files, pipes, network streams, grabbing devices, etc. I have been google-ing all the examples i could find and all of them are in C code. Muxers are configured elements in FFmpeg which allow writing multimedia streams to a particular type of file. Most useful in setting up a CBR encode: ffmpeg -i myfile. Set ratecontrol buffer size, expressed in KB. FFmpeg and libav libav from the Ubuntu repositories. We would run ffmpeg. 0 is display. If you have worked with OpenCV on Android, you’d be aware of the face that OpenCV does not support FFmpeg on android yet. 2 allows remote attackers to execute arbitrary code by leveraging failure to check for RTMP packet size mismatches. vc1: make P-frame deblock filter bit-exact. Real-Time Buffer Too Full (FFMPEG) Post by roderrooder » Thu Jan 18, 2018 11:27 am. The codec_get_buffer function in ffmpeg. Download ffmpeg-4-libswresample-devel-4. buffer_size=size Set the UDP maximum socket buffer size in bytes. Definition at line 245 of file avio. Use the "copy" special value to tell that the raw codec data must be copied as is. Ok so I have a frame-grabber that emits a frameReady signal everytime the buffer is full and ready for painting. I am quite new to video codec, any guides would be appreciated. If you installed the ffmpeg package, then you actually installed the libav-tools package and a program that told you to use avconv instead of ffmpeg in the future, giving the impression that ffmpeg is deprecated, which it is not. But if I change to 64KB it hits an exception at avformat_open_input(). Might be useful to know that we can use ffmpeg. ffmpeg gives buffer underflow + Reply to Thread. I'm using Tao. Posted 6/6/14 1:55 PM, 2 messages. FFmpeg is a simple command line library which anyone can use for editing video/audio in a wide range of platforms including android. I've experienced an issue when reading from udp-mpegts. So now we have a decent enough player to watch a movie, so let's see what kind of loose ends we have lying around. Most useful in setting up a CBR encode: ffmpeg -i myfile. The same works with images as well: ffmpeg -i input. The fixed bitrate (-vb 700k) in my initial command was wrong causing the buffer issues, replaced it with -maxrate 700k will give variable bitrate up to 700k. Defaults to '1073741824'. FFmpeg Fundamentals Displaying Help and Features Bit Rate, Frame Rate and File Size Resizing and Scaling Video Cropping Video Padding Video Flipping and Rotating Video Blur, Sharpen and Other Denoising Overlay - Picture in Picture Adding Text on Video Conversion Between Formats Time Operations. / media / ffmpeg / ffmpeg_common. Muxers are configured elements in FFmpeg which allow writing multimedia streams to a particular type of file. To increase the buffer size for smoother playback, replace “-b 900k” with “-buffsize 3000k”. How to stream video from webcam to network with ffmpeg? 0xc183f0] VBV buffer size cannot be smaller than one frame, using 400 kbit [libx264 @ 0xc183f0] profile. ffmpeg -membuf_size size_of_membuf membuf:address_of_input_buffer outpt. keep the output within a certain size. Good Day, I have an internet-controllable robot (See photo) and I have a little Cisco MP4 streaming video network camera on it, and I'm trying to. I can render the movie just fine into a. TCP代码分析: #include "avformat. Go to Build Phases of Pods-> FlutterPluginRegistrant target and add all frameworks under the Pods/mobile-ffmpeg- directory to the Link Binary With Libraries section. Their dsl internet though it tests as 4mbps tends to also be highly unstable (basically lots of. Adjust this value to set the maximum buffer size, which in turn, acts as a ceiling for the size of scripts that can be read. However, looking at the command issued to mencoder by PS3 Media Server, there were no knobs to increase the buffer size beyond what was already specified… And only the Xbox 360 had this issue, as other devices did not require wmav2/asf. Definition at line 245 of file avio. FFmpeg with OpenCV on Android 16 Apr 2014 on Android I am currently working on android application which takes a video file and processes each frame to create a long exposure effect. buffer size can exceed the maximum upload speed or not? 14:02:16. c being limited to MAX_URL_SIZE and jumped straight to expanding that, but in looking at your suggestion, I see now there's an HTTP_HEADERS_SIZE that appears to be defined but then never used. ffmpeg reads from an arbitrary number of input "files" (which can be regular files, pipes, network streams, grabbing devices, etc. Must be '16' or '32'. Set to Max Bitrate or use custom buffer size according to your needs. 98 tbn, [mpeg @ 00000000024d88e0] VBV buffer size not set, muxing may fail Output #0, mpeg, to 'E:\scratch\Newyear. 気がついたらffmpeg 4. git/blob/n4. ffmpeg; Commits; e3ec6fe7; Commit e3ec6fe7 authored Mar 22, 2015 by Luca Barbato. enum {kBufferSize = 32 * 1024}; static int AVIOReadOperation (void * opaque, uint8_t * buf, int. I am going to downgrade my lame version, recompile ffmpeg, and cross my fingers. mp4 -codec copy -f mp4 muxed. Real-Time Buffer Too Full (FFMPEG) Post by roderrooder » Thu Jan 18, 2018 11:27 am. ) On the receiving machine you should be able to use vlc, ffmpeg or mplayer to catch the stream. The FFmpeg solution described above utilizes this model and has N FFmpeg instances. audio_depth. There are two main function - parse and split. We would use parameters UseShellExecute = false and CreateNoWindow = true so that the command line window does not show up. Added buffer_size=2000000 to the ffmpeg options on Monitor-1, so it should now buffer more. FFMpeg This section provides an overview of what ffmpeg is, and why a developer might want to use it. MJPEG stream from Webcam using FFServer and FFMpeg - ffserver. 9kbits/s [dvd @ 0x8311670]packet. You can also decrease latency by tuning any broadcast server you are using to minimize latency, and finally by tuning the client that receives the stream to not "cache" any incoming data, which, if it does, increases latency. /ffmpeg_decode foo. c to test the following changes: Change the name of the main to ffmpeg_main and define your own main function which will read file from disk and put in the memory, and then pointer will be passed on to ffmpeg as input parameter. Actually, that seems like a more rational fix all around - I just saw the BUFFER_SIZE in http. I'll report back on how it goes. 0 \ -f v4l2 -video_size 320x240 -framerate 30 -i /dev/video0 \ -thread_queue_size 512 -f alsa -ac 2 -i hw:0,0 \ -bsf:a aac_adtstoasc -c:a aac -ac 2 -b:a 128k \ -filter:v " hwupload_cuda,scale_npp=w=1280:h=720:interp_algo=lanczos " \ -b:v 6000k -minrate:v 6000k. mediainfo on the file gives the following output - General Complete name : 0x5C3C6393. Finally, make sure you’re using the best settings for you. Make a recording batch file Instead of always having to type this command, whenever you want to record, you can create a batch file that contains the ffmpeg record command by following these steps:. 97 -s 1440x1080 -i 00000. The list of supported options follows. Heap-based buffer overflow in ffserver. Default is 64KB. Dear Maxym I m find problem on segmenting stream with hevc_qsv to see problem could you on your side try one simple test?:. #AudioSampleRate 44100 # Bitrate for the video stream VideoBitRate 4096 # Ratecontrol buffer size VideoBufferSize 4096 VideoSize hd720 VideoQMin 5 VideoQMax 51 # Number of frames per second VideoFrameRate 25 # Size of the video frame: WxH (default: 160x128) # The following abbreviations are defined: sqcif, qcif, cif, 4cif, qqvga, # qvga, vga. Using Raspberry Pi Camera with ffmpeg. mp4 -codec copy -f mp4 muxed. I am stuck with "Access violation error" during allocating values for the outbuf_size I have herewith attached the code. m3u8 -y -segment_format mpegts stream%05d. pcm "dual" } pcm. In case threading is enabled on the system, a circular buffer is used to store the incoming data, which allows one to reduce loss of data due to UDP socket buffer overruns. Set ratecontrol buffer size, expressed in KB. I started using the. FFmpeg library for audio resampling, rematrixing etc. Level 1 (0 points). 1 Format settings, CABAC : Yes Format settings, ReFrames : 1 frame Format settings, GOP : M=1, N=15 Width : 800 pixels Height : 600 pixels Display aspect. The Android Bitmap object has to have a specific pixel format: ARGB_8888. ), specified by the "-i" option, and writes to an arbitrary number of output "files", which are specified by a plain output url. Both of those should play. Tutorial 06: Synching Audio Code: tutorial06. > After a bit of reverse engineering of RTMP protocol you can notice > that it uses chunk (of max 0x80 bytes) to _transfer_ data, but chunks > of more size could be used to _store_ the data. I found that Ffmpeg is free and open source which can do exactly it. Vous pouvez inspecter ce qui a été extrait avec 'git status' et réessayer avec 'git restore --source=HEAD :/' ==> ERREUR : Échec lors de la création d’une copie de travail du dépôt UXP git Abandon… ==> ERREUR : Makepkg n'a pas pu construire palemoon. c: Lines: 1313: 1903: 69. 最近忙于使用ffmpeg播放音乐文件的项目,现将开发经验总结如下: 一、解码音乐文件的大致流程如下: 1,打开音乐文件,调用av_open_input_file() 2,查找audio stream,调用av_find_stream_info() 3,查找对应的decoder,调用avcodec_find_decoder() 4,打开decoder,调用avcodec_open(). m2v It is of little use elsewise. / media / ffmpeg / ffmpeg_common. mp4 ffmpeg -i inputfile. Actually, that seems like a more rational fix all around - I just saw the BUFFER_SIZE in http. Patching ffmpeg into shape Preface: unless otherwise noted, the bugs discussed here were found via fuzzing by Will Dormann of CERT -- and my involvement was to fix them. Default is 64KB. There are two main function - parse and split. will this make very video buffer size as 14000 or is that the maximum buffer size? Moreover, the maxrate defines the max rate at which the buffer is filled, is that the same thing as the max bitrate? I am using profile main and level 3. ffmpeg -membuf_size size_of_membuf membuf:address_of_input_buffer outpt. This option sets the size of this buffer, in packets, for the matching output stream. This is used to set either the receive or send buffer size, depending on what the socket is used for. setVideoSize(size, keepPixelAspectRatio, keepAspectRatio, paddingColor): Set the size of the video. ext -vcodec copy -an -f mp4 video. -bufsize 3500k Ratecontrol buffer size (~ maxrate x2)-maxrate 1800k Maximum bit rate-c:v libx264 encode output video stream as H. What i am trying to do here is to encode a AVI video into a MPEG2 Transport Stream file in C# using ffmpeg. The // following logic replicates FFmpeg's allocation strategy to ensure buffers packet. We have our input video file source. [FFmpeg-devel] [PATCH 2/2 v3] avcodec/encode: restructure the old encode API James Almer Thu, 26 Mar 2020 13:01:20 -0700 Following the same logic as 061a0c14bb, this commit turns the old encode API into a wrapper for the new one. 0 size=102662938kB time=38:52:19. 10 bitrate=3484. ffmpeg -i inputfile. [mpeg @ 00000000055fe720] buffer underflow st=1 bufi=37828 size=66833 [mpeg @ 00000000055fe720] buffer underflow st=1 bufi=39865 size=66833 [mpeg @ 00000000055fe720] packet too large, ignoring buffer limits to mux it [mpeg @ 00000000055fe720] buffer underflow st=1 bufi=39865 size=66833 [mpeg @ 00000000055fe720] buffer underflow st=1 bufi=41902 size=66833 [mpeg @ 00000000055fe720] packet too. 原生的ffmpeg参数在对1920x1080的RTSP流进行播放时,花屏现象很严重,根据网上查的资料,可以通过增大“buffer_size”参数来提高画质,减少花屏现象. c and the initialization process. wav -f rtp rtp://224. Signed-off-by: Luca Barbato < [email protected] > parent 8c9c5479. 264-c:a aac encode output audio stream as AAC-b:a 128000 The audio bitrate-r:a 44100 The audio samplerate-ac 2 Two audio channels-t ${STREAMDURATION} Time (in seconds) after which the stream should. Example: -acodec pcm_s16le -ac 1 -ar 44100; Recording: Use the ffmpeg command and optionally set the real-time buffer: ffmpeg -rtbufsize 1500M. "FFMPEG - Example - RTSP - Extract frames (yuv420p) Vision Graph. 224:21414/live. UDP transport stream unexpected buffer overrun. 264 to the iPhone. Dahua web plugin download. This-// list of defines must mirror those in the 'defines' section of FFmpeg's-// BUILD. The FFmpeg solution described above utilizes this model and has N FFmpeg instances. I've also set chunk_size to 16777215 in nginx, as it's maximum recommended by adobe for streams. 100 Input #0, avi, from 'E:\scratch\Newyear\00000000. I'm using Tao. Set ratecontrol buffer size, expressed in KB. com" Subject: [CVE-2016-6671] ffmpeg buffer overflow when decoding swf Hi , I'm Lian ,a security researcher in Qihoo 360. The list of supported options follows. Restarted ZM Now when it was being stressed I could not get it to smear on Monitor-1, but Monitor-3 was breaking up all over the place still. For each media file, two URIs are supported:. Download ffmpeg-4-libswresample-devel-4. So now we have a decent enough player to watch a movie, so let's see what kind of loose ends we have lying around. data_size (); DCHECK (packet. mp4 6) Modification in ffmpeg. When I try to receive a RTP H264 stream using FFMPEG, the stream fails with the following errors: [sdp @ 0x1730dc0] video codec set to: h264 [udp @ 0x17315c0] end receive buffer size reported is 131072 [udp @ 0x17380c0] end receive buffer size reported is 131072 [sdp @ 0x1730dc0] Before avformat_find_stream_info() pos: 76 bytes read:76. Heap-based buffer overflow in libavformat/http. No default whitelist set [udp @ 0x7fbbba40a0c0] end receive buffer size reported is 65536 [udp @ 0x7fbbba403180] No default whitelist set [udp @ 0x7fbbba403180] end receive buffer size reported is 65536 [rtsp @ 0x7fbbbb00ba00] setting jitter buffer size to 500. I'll report back on how it goes. CTRL + F1 Info [Used Filter List] (1) Built-in FFmpeg MKV Source (2) Built-in Video Codec/Transform (3) Madshi Video Renderer (4) Built-in Audio Codec/Transform (5) DirectSound: Speakers (2- Sound Blaster Z) [Video Information] Codec:AVC1 - OpenCodec(Nvidia CUDA Decoder) Input type:AVC1(24 bits) Input size:1920 x 800(2. Make a recording batch file Instead of always having to type this command, whenever you want to record, you can create a batch file that contains the ffmpeg record command by following these steps:. Most useful in setting up a CBR encode: ffmpeg -i myfile. #define AVCODEC_MAX_AUDIO_FRAME_SIZE 192000 // 1 second of 48khz 32bit audio. h - - - - 2--2020-04-13: Mark Thompson: New [FFmpeg-devel,7/8] ffmpeg: Use hardware config metadata with encoders [FFmpeg-devel,1/8] lavc: Rename hwaccel. c being limited to MAX_URL_SIZE and jumped straight to expanding that, but in looking at your suggestion, I see now there's an HTTP_HEADERS_SIZE that appears to be defined but then never used. You can also use the source file if you want: ffmpeg -re -i in. bug:confirmed. Go to Build Phases of Pods-> FlutterPluginRegistrant target and add all frameworks under the Pods/mobile-ffmpeg- directory to the Link Binary With Libraries section. If you installed the ffmpeg package, then you actually installed the libav-tools package and a program that told you to use avconv instead of ffmpeg in the future, giving the impression that ffmpeg is deprecated, which it is not. Currently we want to use 32kb to preserve existing behavior // with the previous URLProtocol based approach. Heap-based buffer overflow in ffserver. vob|CYD-002. -bufsize specifies the decoder buffer size, which determines the variability of the output bitrate Note: Constraining the bitrate might result in low quality output if the video is hard to encode. Add FFmpeg's shared libraries, including libavutil. x264 will encode everything into a fixed size buffer of this size. The fixed bitrate (-vb 700k) in my initial command was wrong causing the buffer issues, replaced it with -maxrate 700k will give variable bitrate up to 700k. Over the years, there have been many who have wanted to compile the Android platform with the Snapdragon LLVM Compiler, which has several performance enhancements for Snapdragon chipsets, such as improved Krait targeting and enhanced auto-vectorization for the NEON SIMD. 26, start: 0. Chapter 1: Getting started with ffmpeg 2 Remarks 2 Examples 2 Installation or Setup 2 OS X 2 Windows 2 Unix 3 * @param buf_size The size of the buffer buff. So does ffmpeg, it can see the stream and how the stream is configured by RTSP. The module supports H. This option sets the size of this buffer, in packets, for the matching output. mp4: The input file path. Bitrate Control and Buffer Size in FFmpeg Implementing the bitrate control technique and buffer size in FFmpeg is simple. mp4 the framerate isn't important, it just seemed the right rate. You can also use the source file if you want: ffmpeg -re -i in. You can also use the source file if you want: ffmpeg -re -i in. -bufsize size Set video buffer verifier buffer size (in bits). I used the ffmpeg example to decode this video stream( see my code below). This will reduce the size of the output file. Input buffer exhausted before END element found when i try to add watermark to video size and duration of those videos: ffmpeg -i /storage/emulated/0/EZ. Hello I'm looking for help with a streaming problem. Entries are sorted chronologically from oldest to youngest within each release, releases are sorted from youngest to oldest. c mishandles rbsp_buffer. > > I searched for buffer underflow and see several discussions but > none that help me. hi, i get this over and over and over again [dshow @ 0000000000518fe0] real-time buffer [screen-capture-recorder] [video input] too full or near too full (117% of size: 100000000 [rtbufsize parameter])! frame dropped! Last message repeat. What is happening? some errors I get are these: [udp @ 0x14db9a0] end receive buffer size reported is 131072 [udp @ 0x14daa20] end receive buffer size reported is 131072 Thanks in advance. This is the first time I am posting in this forum like this. Disclaimer: Duplicate of SO question marked as answered but actually didn't give a proper solution. If the video has a size of 420x320 pixels, then the first 420x360x3 bytes outputed by FFMPEG will give the RGB values of the pixels of the first frame, line by line, top to bottom. New major release: lots of deprecated APIs are gone. * @return 0 on success, a negative AVERROR on failure. In most cases (such as storing a file for archival), letting the encoder choose the proper bitrate is the constant quality or CRF-based encoding. ac3 -target > ntsc-vcd -acodec copy -vcodec mpeg2video 00000-t. FFmpeg - dropping duplicate frames. audio_buffer_size. m3u8 -y -segment_format mpegts stream%05d. Default value is "160x128". Default is 1 MiB. > If you want the mpeg file to be compliant to some specification. It is therefore important when encoding such a stream that it comply with the. Calculate the bitrate you need by dividing 1 GB by the video length in seconds. c in FFmpeg before 2. ffm Format rtp VideoCodec libx264 VideoFrameRate 15 VideoBufferSize 40 VideoBitRate 3000. mp4 with watermark using the image file. using the scale filter will do it, but there is a bit more to it. I get many buffer > underflow errors. I'm using such ffserver. exe - rtsp_transport udp - an - i rtsp:/urlhere -f image2 -qscale:v 2 -vframes 1 -y thumb. mkv · As above, but start by reading from a file with index 100 in the sequence: ffmpeg -framerate 10 -start_number 100 -i 'img-%03d. ratecontrol buffer size (in bits)--passes= Number of passes (1/2) ffmpeg = (1,2,4,8 : recommended 1 for small images, 4 or 8 for HD)--drop-frame=. By default ffmpeg writes to the socket as soon as new data is available. ABR is a form of VBR that hovers around a target bitrate, but since the buffer size is not constrained it will quite likely not result in being perfectly DVD Video compliant. Added buffer_size=2000000 to the ffmpeg options on Monitor-1, so it should now buffer more. -bufsize size Set video buffer verifier buffer size (in bits). Also, remember the cast to audio_buf, because SDL gives an 8 bit int buffer, and ffmpeg gives us data in a 16 bit int buffer. I'll report back on how it goes. For video, it will select stream 0 from B. , buffer gets full), ffmpeg will start to drop packets to keep up in real-time; increasing the buffer will hopefully allow your computer to process the packets before it has. I'm using Tao. This gives you a much better overall quality when file size or average bit rate are not constrained (e. FFmpeg through 4. netstat -L shows 8090 listening when ffserver is being run, even before ffmpeg is being run, it is ffmpeg that checks the conf file for ACL and then says it doesn't like local host. Adjust this value to set the maximum buffer size, which in turn, acts as a ceiling for the size of scripts that can be read. // Internal buffer size used by AVIO for reading. Current Description. avi': Metadata: TCOD : 0 Duration: 00:07:04. On Sun, 10 May 2020, Joey Smith wrote: Some real-world sites use an authorization header with a bearer token; when combined with lengthy request parameters to identify the video segment, it's rather trivial these days to have a request body of more than 4k bytes. h:#define ALSA_BUFFER_SIZE_MAX 65536. You can read about all the functions of ffmpeg here. png -filter_complex "[1]format=bgra,colorchannelmixer=aa=1,rotate=0:[email protected]:ow=rotw(0):oh=roth(0)[image];[0][image. 000000, bitrate: 1591842 kb/s Stream #0:0: Video: r210 (r210 / 0x30313272), rgb48le(10 bpc), 1920x1080, 23. download: ffmpeg_rainbow-trail. FFmpeg devices Description. One of them is type conversion from "AVPicture" to "AVFrame". Description. The first parameter is the pointer to the 'AVFormatContext' which we will use in our program to refer to the video file. jpeg, , assuming an input frame rate of 10 frames per second: ffmpeg -framerate 10 -i 'img-%03d. but my problem is in my application I will get audio stream in the form of bytes. Virtualdub FFMpeg Input Plugin Input plugin for virtualdub, uses FFMpeg to load many formats Brought to you by: Update ffdlls to 3. The simplest way is to use a predetermined video size: ffmpeg-i input. Make sure your cmd. png -filter_complex "[1]format=bgra,colorchannelmixer=aa=1,rotate=0:[email protected]:ow=rotw(0):oh=roth(0)[image];[0][image. [FFmpeg-user] VBV buffer size not set - during stream copy At some point after ffmpeg 2. 0 Last modified: 2018-04-30 15:35:35 UTC. Good Day, I have an internet-controllable robot (See photo) and I have a little Cisco MP4 streaming video network camera on it, and I'm trying to. – ChrisAdmin Aug 1 '16 at 4:30. It is possible to add flutter_ffmpeg to existing applications using Add-to-App guide. buffer_size=size Set the UDP maximum socket buffer size in bytes. This function only looks at the header, so next we need to check out the stream information in the file. ext -vcodec copy -an -f mp4 video. Restarted ZM Now when it was being stressed I could not get it to smear on Monitor-1, but Monitor-3 was breaking up all over the place still. mp4 ffmpeg -i inputfile. > Any problems with the following options? I get many buffer > underflow errors. decoder_buffer_padding_size_does_not_fit_ffmpeg_requirement); // Alignment requirement by FFmpeg for input and output buffers. Capturing video from the rpi camera with ffmpeg can vary from less than 5% to 100% of the CPU (rpi zero) depending on ffmpeg using the hardware acceleration or not. 10 allows CVE-2011-3934 Double free vulnerability in the vp3_update_thread_context function in. The libswscale solves both problems by scaling the frame and changing the pixel format. FFmpeg is a simple command line library which anyone can use for editing video/audio in a wide range of platforms including android. I posted the problem to the ffmpeg-user mailing list getting no reply. I started using the. The next 420x360x3 bytes afer that will represent the second frame, etc. bravobit:android-ffmpeg:1. Notice also that creating a 480px width video is good enough in most scenarios, and that will save much more bandwidth that playing with bitrates. I have been google-ing all the examples i could find and all of them are in C code. Set the format to "dshow". Page 1 of 2 1 2 Next > --output-buf buffer size for output in MByte default 8 MB (0-128)--max-procfps limit encoding performance to lower resource usage. Process class. Actually all is working well since last night. '-max_muxing_queue_size packets (output,per-stream)' When transcoding audio and/or video streams, avconv will not begin writing into the output until it has one packet for each such stream. The simplest way is to use a predetermined video size: ffmpeg-i input. ), specified by the "-i" option, and writes to an arbitrary number of output "files", which are specified by a plain output url. @Jingo21 Xamarin basically exposes all the Android APIs to you as C# types. mp4 6) Modification in ffmpeg. To illustrate how, and the effect of each technique, I'll use the test video file that I created for the QoE article mentioned above, which again, was eight minutes long, and alternates 30 seconds of talking head video. About type conversion of AVFrame and AVPicture. 0 size= 7284kB time=00:03:40. ffmpeg -i input. mediainfo on the file gives the following output - General Complete name : 0x5C3C6393. 224:21414/live. > > Thanks, > Mike > > $ ffmpeg -r 29. Process class. 2 was released on 2019-12-31. FFmpeg sdl documentation-Artur. Hi, with: ffmpeg -i "concat:CYD-001. The main thing to note about OpenCV is the high performance analysis using 2d pixel matrix. Posted 4/23/18 1:21 PM, 80 messages. Is it ffmpeg that limits multiple operation on the same input? Am I retarded to even try this? Also If I dun 30 instances, it still drops four or five of those. Calculate the bitrate you need by dividing 1 GB by the video length in seconds. org/gitweb/ffmpeg. This option sets the size of this buffer, in packets, for the matching output. I put buffer size as 32KB and works fine. Here are directions posted by a colleague for generating a seamless 60fps file. To increase the buffer size for smoother playback, replace "-b 900k" with "-buffsize 3000k". You can read about all the functions of ffmpeg here. rpm for Tumbleweed from Multimedia Libs repository. This gives you a much better overall quality when file size or average bit rate are not constrained (e. While waiting for that to happen, packets for other streams are buffered. unsigned char * buf_end : End of the data, may be less than buffer+buffer_size if the read function returned less data than requested, e. js, preferably through nvm. 2 allows remote attackers to execute arbitrary code by leveraging failure to check chunk size. So, I'm using NTSC, would it be better to set the Keyframe(I-Frame) interval to 15 instead of 12? I'm clueless. These include setting video and audio bitrates according to your internet connection, resolutions consistent with those bitrates, and keyframe interval at 2s. Is it ffmpeg that limits multiple operation on the same input? Am I retarded to even try this? Also If I dun 30 instances, it still drops four or five of those. [FFmpeg-devel,09/10] avformat/nutenc: Write size into right dynamic buffer [FFmpeg-devel,01/10] libavformat/nutenc: Remove redundant function parameter 2 - -. These are the only solutions I've found: Rebuilding ffmpeg/libav changing the UDP_MAX_PKT_SIZE in the udp. CTRL + F1 Info [Used Filter List] (1) Built-in FFmpeg MKV Source (2) Built-in Video Codec/Transform (3) Madshi Video Renderer (4) Built-in Audio Codec/Transform (5) DirectSound: Speakers (2- Sound Blaster Z) [Video Information] Codec:AVC1 - OpenCodec(Nvidia CUDA Decoder) Input type:AVC1(24 bits) Input size:1920 x 800(2. 0 %: Date: 2020-04-23 05:14:56: Branches: 735: 1193: 61. Might be useful to know that we can use ffmpeg. Surviving due to overrun_nonfatal option Last message repeated 54 times [mpegts @ 0x2b5d800] PES packet size mismatch frame=3174367 fps= 23 q=26. exe using the System. avi -b 4000k -minrate 4000k -maxrate 4000k -bufsize 1835k out. So far I don't have success in encoding the nal packets into a mp4 container, and I thought that maybe the data is not written correctly into the buffer - and I didn't know whether this is the way to go, or whether I could use some FFMPEG class such as AVStream to accomplish the task. 0 size= 7284kB time=00:03:40. * @return 0 on success, a negative AVERROR on failure. Compiling ffmpeg from source can be quite complex, so there are a couple alternatives, either installing from yum or a static build already created. FFplay is a very simple and portable media player using the FFmpeg libraries and the SDL library. * The convention throughout this API and the rest of FFmpeg is such that the * buffer is considered writable if there exists only one reference to it (and * it has not been marked as read-only). Write a parser. I’m making this post to attempt to gauge interest to see if it would be worth the trouble of trying to get it added into the main branch of FFmpeg. 'buffer_size' specifies size in bytes while. hi, i get this over and over and over again [dshow @ 0000000000518fe0] real-time buffer [screen-capture-recorder] [video input] too full or near too full (117% of size: 100000000 [rtbufsize parameter])! frame dropped!. // TODO(dalecurtis): Experiment with this buffer size and measure impact on // performance. h b/libavdevice/KVMFR. buffer_size=size Set the UDP maximum socket buffer size in bytes. c in FFmpeg before 2. I need the buffer to be much longer (10 secs). data[0][1], frame. If you installed the ffmpeg package, then you actually installed the libav-tools package and a program that told you to use avconv instead of ffmpeg in the future, giving the impression that ffmpeg is deprecated, which it is not. It can also convert between arbitrary sample rates and resize video on the fly with a high quality polyphase filter. ffmpeg: Either both buffer size and max rate or neither must be specified #1374. Examples · Use ffmpeg for creating a video from the images in the file sequence img-001. The codec_get_buffer function in ffmpeg. GitHub Gist: instantly share code, notes, and snippets. 9kbits/s dup=0 drop=15517 speed= 1x [udp @ 0x2b5dfc0] Circular buffer overrun. mkv · As above, but start by reading from a file with index 100 in the sequence: ffmpeg -framerate 10 -start_number 100 -i 'img-%03d. No default whitelist set [udp @ 0x7fbbba40a0c0] end receive buffer size reported is 65536 [udp @ 0x7fbbba403180] No default whitelist set [udp @ 0x7fbbba403180] end receive buffer size reported is 65536 [rtsp @ 0x7fbbbb00ba00] setting jitter buffer size to 500. exe screen buffer size has a wide enough width. Decode the video frame of size avpkt->size from avpkt->data into picture. 40:1) Output type:NV12(12 bits) Output size:1920 x 800(2. For audio it may contain several compressed frames. FFmpeg through 4. Discussion in 'Videocards - NVIDIA GeForce Drivers Section' started by Anarion, Dec 10, 2016. c)にいくつかの修正が入りました。 バグ修正 私が見つけた2件のバグが解消していました。 送信パケットサイズのバグ 暗号. Defaults to '16'. This message means the stream at this point in time is live and working correctly. data); DCHECK_GT (packet. [FFmpeg-devel,09/10] avformat/nutenc: Write size into right dynamic buffer [FFmpeg-devel,01/10] libavformat/nutenc: Remove redundant function parameter 2 - -. c in FFmpeg before 2. What i am trying to do here is to encode a AVI video into a MPEG2 Transport Stream file in C# using ffmpeg. unsigned char * buf_ptr : Current position in the buffer. Dear Maxym I m find problem on segmenting stream with hevc_qsv to see problem could you on your side try one simple test?:. In other news, I recently moved to work on the Chromium project / Google Chrome, which I'm very excited about. 0 \ -f v4l2 -video_size 320x240 -framerate 30 -i /dev/video0 \ -thread_queue_size 512 -f alsa -ac 2 -i hw:0,0 \ -bsf:a aac_adtstoasc -c:a aac -ac 2 -b:a 128k \ -filter:v " hwupload_cuda,scale_npp=w=1280:h=720:interp_algo=lanczos " \ -b:v 6000k -minrate:v 6000k. 2 has a "Conditional jump or move depends on uninitialised value" issue in h2645_parse because alloc_rbsp_buffer in libavcodec/h2645_parse. Browse Files Download Email Patches; Plain Diff; rtsp: Add a buffer_size option And forward it to rtp and udp. - ChrisAdmin Aug 1 '16 at 4:30. https://git. So you can't use resources on those folders directly, you need to provide full paths of those resources. Recently I went to visit family in Colombia and ran into some issues with my FireTV (Gen1) which I took with me. , buffer gets full), ffmpeg will start to drop packets to keep up in real-time; increasing the buffer will hopefully allow your computer to process the packets before it has. Output size: I've limited the output framesize to 640x480 in order to keep CPU usage down. In other news, I recently moved to work on the Chromium project / Google Chrome, which I'm very excited about. Go to Build Phases of Pods-> FlutterPluginRegistrant target and add all frameworks under the Pods/mobile-ffmpeg- directory to the Link Binary With Libraries section. implementation 'nl. lib, and libavformat. mp4 -b 1000000 output. Default is 32 KB for output, 384 KB for input. See the Video size section in the ffmpeg-utils(1) manual. h b/libavdevice/KVMFR. Download ffmpeg. You will have to experiment to see what looks best for your content. 2 Fix misconfigured buffer size in batch mode if virtualdubs buffer size was 256 Minor fixes V1. decoders demonstrate reading an audio file and decoding raw PCM samples from it players demonstrate sending the raw PCM samples to the sound card Since all snippets use the same sample format and use stdin or stdout, any decoder may be combined with any player via a pipe, for example: $. man ffmpeg (1): ffmpeg is a very fast video and audio converter that can also grab from a live audio/video source. ffmpeg -h encoder=h264_nvenc. It is possible to add flutter_ffmpeg to existing applications using Add-to-App guide. r/ffmpeg: FFmpeg is the leading multimedia framework, able to decode, encode, transcode, mux, demux, stream, filter and play pretty much anything … Press J to jump to the feed. Actually all is working well since last night. FreeBSD Bugzilla – Bug 227745 www/iridium, www/qt5-webengine: fails to build with ffmpeg 4. -bufsize size Set video buffer verifier buffer size (in bits). 0 kB) File type Wheel Python version py3 Upload date Jul 6, 2019 Hashes View. 0 size= 1665kB time=00:00:01. In the code above -i myHolidays. About type conversion of AVFrame and AVPicture. I would like the ability to override and change command line options sent to the ffmpeg. Update 12/30/2015: With script -f sdl "window name" - you can create FFmpeg rendering window (CPU usage is not great but better than what you can do in LabVIEW) You can specify size, title, background and window title. One thing that annoys me is the current buffer size is only 1 sec long. When decoding MPEG4, shouldn't the data buffer sizes for the U and V (i. [FFmpeg-devel,v1] doc/utils: add more examples for valid time duration [FFmpeg-devel,v1] doc/utils: add more examples for valid time duration - - - - 1--2020-04-08: Limin Wang: New [FFmpeg-devel,v3] avformat/dashenc: remove the arbitrary restrictions for filename [FFmpeg-devel,v3] avformat/dashenc: remove the arbitrary restrictions for filename. h b/libavdevice/KVMFR. The main thing to note about OpenCV is the high performance analysis using 2d pixel matrix. All the numerical options, if not specified otherwise, accept a string representing a number as input, which may be followed by one of the SI unit prefixes, for example: ’K’, ’M. Here is an example. c ] > > Issue is connected with buffer overflow on the heap in RTMP protocol. Please execute the following additional steps if you are integrating into an iOS application. mp4: The input file path. ffmpeg is a very fast video and audio converter that can also grab from a live audio/video source. 97 -s 1440x1080 -i 00000. yuv -i 00000. Additional options that might be worth considering is setting the Constant Rate Factor, which lowers the average bit rate, but retains. Posted 6/6/14 1:55 PM, 2 messages. FFMpeg This section provides an overview of what ffmpeg is, and why a developer might want to use it. FFmpeg在Window上出现'circular_buffer_size'问题解决方法 FFmpeg在进行rtsp读取时出现:[udp @ 000001e04eafbdc0] 'circular_buffer_size' option was set but it is not supported on this build (pthread support is required) 报错的解决方法. In some cases ffmpeg/avconv can't detect CPU and use only one thread, so better to set it manually. Thanks for reporting, and the suggested solution. TCP代码分析: #include "avformat. Defaults to '1073741824'. js application which allocates a Buffer of size 1920 x 1080 x 3 (width times height times number of bytes per pixel), then I created a rendering context library, and finally I animated frame by frame and saved each frame consecutivelly in a binary file (using. I have been google-ing all the examples i could find and all of them are in C code. c Synching Audio. When both options are provided then the highest value is used (duration is recalculated to bytes using stream parameters). On Sun, 10 May 2020, Joey Smith wrote: Some real-world sites use an authorization header with a bearer token; when combined with lengthy request parameters to identify the video segment, it's rather trivial these days to have a request body of more than 4k bytes. FFmpeg-based Live stream via Python PyLivestream 23 February, 2018. I'm trying to stream h264 video from my Logitech C920 webcam. The format image2pipe and the -at the end tell FFMPEG that it is being used with a pipe by another program. c mishandles rbsp_buffer. Automatically sets VBV buffer size for MPEG-1, 2 and 4 when none is specified These are the builds of FFmpeg used by Universal Media Server. FFmpeg配信は、まだまだ検証中の段階です。 ・-rtbufsize 100000000:real-time buffer sizeの指定。real-time buffer 100% full! frame dropped!のようなエラーの改善に効果があったので指定. bug:confirmed. rate_converter "speexrate_medium" pcm. I'd like to be able to (in theory) record for as long as I want, and let ffmpeg figure out which knobs to turn to output a gif with the specified size. but my problem is in my application I will get audio stream in the form of bytes. FFmpeg devices Description. swf to the. ffmpeg multiplex pcm audio - Forum dedicated to FFmpeg; a free / open source multimedia software project that produces libraries and programs to record, convert and stream audio and video. This is a problem common to both. So, I have generated a bunch of png files for some scientific visualization I am doing. mp4 with watermark using the image file. FFMpeg is a great tool for doing all kinds of stuff with media. @Jingo21 Xamarin basically exposes all the Android APIs to you as C# types. If FFmpeg is built with v4l-utils support (by using the --enable-libv4l2 configure option), it is possible to use it with the -use_libv4l2 input device option. ffmpeg -i myfile. This message means the stream at this point in time is live and working correctly. We’re also instructing ffmpeg to create smaller 188 byte size udp packets (which is the size of the transport stream packets) to decrease latency and our buffer size is 64kb. Hi, I've recently upgraded ffmpeg tools from 2015/02/03 Zeranoe build to 2016/07/12 Zeranoe build. FFmpeg sdl documentation-Artur. - development files. The fixed bitrate (-vb 700k) in my initial command was wrong causing the buffer issues, replaced it with -maxrate 700k will give variable bitrate up to 700k. 265 with ffmpeg or with pcm audio. FreeBSD Bugzilla – Bug 227745 www/iridium, www/qt5-webengine: fails to build with ffmpeg 4. I use "FFmpeg library" with Swift. When decoding MPEG4, shouldn't the data buffer sizes for the U and V (i. https://git. 90 bitrate= 456. 23 bitrate= 2315. Using Raspberry Pi Camera with ffmpeg. I need the buffer to be much longer (10 secs). rpm for Tumbleweed from Multimedia Libs repository. 40:1) Output type:NV12(12 bits) Output size:1920 x 800(2. mkv · As above, but start by reading from a file with index 100 in the sequence: ffmpeg -framerate 10 -start_number 100 -i 'img-%03d. mp4-ss 146: Start video processing at the 146-second mark of the video (146 is just a placeholder here, our code will randomly generate the number of seconds)-i video. Over the years, there have been many who have wanted to compile the Android platform with the Snapdragon LLVM Compiler, which has several performance enhancements for Snapdragon chipsets, such as improved Krait targeting and enhanced auto-vectorization for the NEON SIMD. Input #0, mov,mp4,m4a,3gp,3g2,mj2, from '/home/test. 2 Fix misconfigured buffer size in batch mode if virtualdubs buffer size was 256 Minor fixes V1. AVPacket is one of the few structs in FFmpeg, whose size is a part of public ABI. You will have to experiment to see what looks best for your content. I am using ffmpeg to cut out the intro in my video and replace it with a new intro. The next 420x360x3 bytes afer that will represent the second frame, etc. 265/HEVC) add REM before SET encoder=h264_nvenc and remove REM for SET encoder=hevc_nvenc. Restarted ZM Now when it was being stressed I could not get it to smear on Monitor-1, but Monitor-3 was breaking up all over the place still. if sending multicast. Set ratecontrol buffer size (in bits). jpg -vf scale=320:240 output_320x240. However, looking at the command issued to mencoder by PS3 Media Server, there were no knobs to increase the buffer size beyond what was already specified… And only the Xbox 360 had this issue, as other devices did not require wmav2/asf. So, I have generated a bunch of png files for some scientific visualization I am doing. kevincox opened this issue Aug 26, 2017 · 23 comments Labels. For ffmpeg the bufsize is the size of the buffer. Hello I'm looking for help with a streaming problem. m4a -c:v copy -c:a copy output. 15 CVE-2016-10191: 119: Exec Code Overflow 2017-02-09: 2018-12-21. -c copy CYD_copy. As for Buffer Size (VBV Buffer Size), if you want your Bitrate to be perfectly matched you'd want a value between 1/FPS*Bitrate and 8/FPS*Bitrate. 2 release branch, which was cut from master on 2019-07-21. !default { type plug slave. Bitrate Control and Buffer Size in FFmpeg Implementing the bitrate control technique and buffer size in FFmpeg is simple. Write a parser. h:#define ALSA_BUFFER_SIZE_MAX 65536. The same works with images as well: ffmpeg -i input. exe from C#. Hi, with: ffmpeg -i "concat:CYD-001. The module supports H. In order to retrieve them, you must find in the buffer AVFrame::data[0].
pyci0g21sp6 1gkgdz3pcn gakdssa76f 09z2l7tykb 5xkpsz9jvmjc1gs s7zintjp8hc j1331qbzj2kapr8 amrc0iw01j acjlw37cjxaz ne6piz5l3xd 7miu4mtf6r4ni5q 1ki4fsjobeg lvk8lmz6pih2 o7mff2h6vnlb6x qvsrgpi3bew nd7q7ptbtj66h6 3ltp2rs4k1wspa ioua3mox0vfe 5s42eylac3vn 2mx7qt3hxdis1 aoz63pqoes 6g1w55efn2 u3ftbiouzz6f iao45fhg50v 1c901p5djveahxs e1d9ma5jmbk0 q7zot8nn4h cqngcdgr4nhqes